  0
SECTION
  2
HEADER
  9
$ACADVER
  1
AC1009
  9
$INSBASE
 10
0.0
 20
0.0
 30
0.0
  9
$EXTMIN
 10
2110.0355491322029593
 20
1289.9396462103240992
 30
0.0
  9
$EXTMAX
 10
2936.8789134213388934
 20
2169.2712447685871666
 30
0.0
  9
$LIMMIN
 10
0.0
 20
0.0
  9
$LIMMAX
 10
420.0
 20
297.0
  9
$ORTHOMODE
 70
     0
  9
$REGENMODE
 70
     1
  9
$FILLMODE
 70
     1
  9
$QTEXTMODE
 70
     0
  9
$MIRRTEXT
 70
     0
  9
$DRAGMODE
 70
     2
  9
$LTSCALE
 40
1.0
  9
$OSMODE
 70
  4095
  9
$ATTMODE
 70
     1
  9
$TEXTSIZE
 40
2.5
  9
$TRACEWID
 40
1.0
  9
$TEXTSTYLE
  7
STANDARD
  9
$CLAYER
  8
0
  9
$CELTYPE
  6
BYLAYER
  9
$CECOLOR
 62
   256
  9
$DIMSCALE
 40
1.0
  9
$DIMASZ
 40
15.0
  9
$DIMEXO
 40
5.0
  9
$DIMDLI
 40
3.75
  9
$DIMRND
 40
0.0
  9
$DIMDLE
 40
0.0
  9
$DIMEXE
 40
1.25
  9
$DIMTP
 40
0.0
  9
$DIMTM
 40
0.0
  9
$DIMTXT
 40
25.0
  9
$DIMCEN
 40
2.5
  9
$DIMTSZ
 40
0.0
  9
$DIMTOL
 70
     0
  9
$DIMLIM
 70
     0
  9
$DIMTIH
 70
     0
  9
$DIMTOH
 70
     0
  9
$DIMSE1
 70
     0
  9
$DIMSE2
 70
     0
  9
$DIMTAD
 70
     1
  9
$DIMZIN
 70
     9
  9
$DIMBLK
  1

  9
$DIMASO
 70
     1
  9
$DIMSHO
 70
     1
  9
$DIMPOST
  1
"
  9
$DIMAPOST
  1

  9
$DIMALT
 70
     0
  9
$DIMALTD
 70
     0
  9
$DIMALTF
 40
0.03937007874016
  9
$DIMLFAC
 40
0.03937
  9
$DIMTOFL
 70
     1
  9
$DIMTVP
 40
0.0
  9
$DIMTIX
 70
     0
  9
$DIMSOXD
 70
     0
  9
$DIMSAH
 70
     0
  9
$DIMBLK1
  1

  9
$DIMBLK2
  1

  9
$DIMSTYLE
  2
英寸
  9
$DIMCLRD
 70
   256
  9
$DIMCLRE
 70
   256
  9
$DIMCLRT
 70
   256
  9
$DIMTFAC
 40
1.0
  9
$DIMGAP
 40
5.0
  9
$LUNITS
 70
     2
  9
$LUPREC
 70
     4
  9
$SKETCHINC
 40
1.0
  9
$FILLETRAD
 40
0.0
  9
$AUNITS
 70
     0
  9
$AUPREC
 70
     0
  9
$MENU
  1
.
  9
$ELEVATION
 40
0.0
  9
$PELEVATION
 40
0.0
  9
$THICKNESS
 40
0.0
  9
$LIMCHECK
 70
     0
  9
$BLIPMODE
 70
     0
  9
$CHAMFERA
 40
0.0
  9
$CHAMFERB
 40
0.0
  9
$SKPOLY
 70
     0
  9
$TDCREATE
 40
2459293.4773379629477859
  9
$TDUPDATE
 40
2459294.5792013891041279
  9
$TDINDWG
 40
0.0047800926
  9
$TDUSRTIMER
 40
0.0047800926
  9
$USRTIMER
 70
     1
  9
$ANGBASE
 50
0.0
  9
$ANGDIR
 70
     0
  9
$PDMODE
 70
     0
  9
$PDSIZE
 40
0.0
  9
$PLINEWID
 40
0.0
  9
$COORDS
 70
     1
  9
$SPLFRAME
 70
     0
  9
$SPLINETYPE
 70
     6
  9
$SPLINESEGS
 70
     8
  9
$ATTDIA
 70
     1
  9
$ATTREQ
 70
     1
  9
$HANDLING
 70
     1
  9
$HANDSEED
  5
478
  9
$SURFTAB1
 70
     6
  9
$SURFTAB2
 70
     6
  9
$SURFTYPE
 70
     6
  9
$SURFU
 70
     6
  9
$SURFV
 70
     6
  9
$UCSNAME
  2

  9
$UCSORG
 10
0.0
 20
0.0
 30
0.0
  9
$UCSXDIR
 10
1.0
 20
0.0
 30
0.0
  9
$UCSYDIR
 10
0.0
 20
1.0
 30
0.0
  9
$PUCSNAME
  2

  9
$PUCSORG
 10
0.0
 20
0.0
 30
0.0
  9
$PUCSXDIR
 10
1.0
 20
0.0
 30
0.0
  9
$PUCSYDIR
 10
0.0
 20
1.0
 30
0.0
  9
$USERI1
 70
     0
  9
$USERI2
 70
     0
  9
$USERI3
 70
     0
  9
$USERI4
 70
     0
  9
$USERI5
 70
     0
  9
$USERR1
 40
0.0
  9
$USERR2
 40
0.0
  9
$USERR3
 40
0.0
  9
$USERR4
 40
0.0
  9
$USERR5
 40
0.0
  9
$WORLDVIEW
 70
     1
  9
$SHADEDGE
 70
     3
  9
$SHADEDIF
 70
    70
  9
$TILEMODE
 70
     1
  9
$MAXACTVP
 70
    64
  9
$PLIMCHECK
 70
     0
  9
$PEXTMIN
 10
0.0
 20
0.0
 30
0.0
  9
$PEXTMAX
 10
0.0
 20
0.0
 30
0.0
  9
$PLIMMIN
 10
0.0
 20
0.0
  9
$PLIMMAX
 10
12.0
 20
9.0
  9
$UNITMODE
 70
     0
  9
$VISRETAIN
 70
     1
  9
$PLINEGEN
 70
     0
  9
$PSLTSCALE
 70
     1
  0
ENDSEC
  0
SECTION
  2
TABLES
  0
TABLE
  2
VPORT
 70
     1
  0
VPORT
  2
*ACTIVE
 70
     0
 10
0.0
 20
0.0
 11
1.0
 21
1.0
 12
2651.2067514644691073
 22
1684.5454146424729061
 13
0.0
 23
0.0
 14
10.0
 24
10.0
 15
10.0
 25
10.0
 16
0.0
 26
0.0
 36
1.0
 17
0.0
 27
0.0
 37
0.0
 40
1972.0616242881210383
 41
1.495705521472392
 42
50.0
 43
0.0
 44
0.0
 50
0.0
 51
0.0
 71
     0
 72
  1000
 73
     1
 74
     3
 75
     0
 76
     0
 77
     0
 78
     0
  0
ENDTAB
  0
TABLE
  2
LTYPE
 70
     2
  0
LTYPE
  2
CONTINUOUS
 70
     0
  3
Solid line
 72
    65
 73
     0
 40
0.0
  0
ENDTAB
  0
TABLE
  2
LAYER
 70
     2
  0
LAYER
  2
0
 70
     0
 62
     7
  6
CONTINUOUS
  0
LAYER
  2
DEFPOINTS
 70
     0
 62
     7
  6
CONTINUOUS
  0
ENDTAB
  0
TABLE
  2
STYLE
 70
     2
  0
STYLE
  2
STANDARD
 70
     0
 40
0.0
 41
1.0
 50
0.0
 71
     0
 42
2.5
  3
txt
  4

  0
STYLE
  2
ANNOTATIVE
 70
     0
 40
0.0
 41
1.0
 50
0.0
 71
     0
 42
2.5
  3
txt
  4

  0
ENDTAB
  0
TABLE
  2
VIEW
 70
     0
  0
ENDTAB
  0
TABLE
  2
UCS
 70
     0
  0
ENDTAB
  0
TABLE
  2
APPID
 70
    12
  0
APPID
  2
ACAD
 70
     0
  0
APPID
  2
ACADANNOTATIVE
 70
     0
  0
APPID
  2
ACAD_PSEXT
 70
     0
  0
APPID
  2
ACADANNOPO
 70
     0
  0
APPID
  2
ACAD_DSTYLE_DIMJAG
 70
     0
  0
APPID
  2
ACAD_DSTYLE_DIMTALN
 70
     0
  0
APPID
  2
ACAD_MLEADERVER
 70
     0
  0
APPID
  2
ACAD_NAV_VCDISPLAY
 70
     0
  0
APPID
  2
ACAD_DSTYLE_DIMBREAK
 70
     0
  0
APPID
  2
ACAD_DSTYLE_DIMRADIAL_EXTENSION
 70
     0
  0
APPID
  2
ACADANNOMONITORALERTICONDI
 70
     0
  0
APPID
  2
ACAD_EXEMPT_FROM_CAD_STANDARDS
 70
     0
  0
ENDTAB
  0
TABLE
  2
DIMSTYLE
 70
     9
  0
DIMSTYLE
  2
STANDARD
 70
     0
  3

  4

  5

  6

  7

 40
1.0
 41
0.18
 42
0.0625
 43
0.38
 44
0.18
 45
0.0
 46
0.0
 47
0.0
 48
0.0
140
0.18
141
0.09
142
0.0
143
25.3999999999999986
144
1.0
145
0.0
146
1.0
147
0.09
 71
     0
 72
     0
 73
     1
 74
     1
 75
     0
 76
     0
 77
     0
 78
     0
170
     0
171
     2
172
     0
173
     0
174
     0
175
     0
176
     0
177
     0
178
     0
  0
DIMSTYLE
  2
ANNOTATIVE
 70
     0
  3

  4

  5

  6

  7

 40
0.0
 41
2.5
 42
0.625
 43
3.75
 44
1.25
 45
0.0
 46
0.0
 47
0.0
 48
0.0
140
2.5
141
2.5
142
0.0
143
0.03937007874016
144
1.0
145
0.0
146
1.0
147
0.625
 71
     0
 72
     0
 73
     0
 74
     0
 75
     0
 76
     0
 77
     1
 78
     8
170
     0
171
     3
172
     1
173
     0
174
     0
175
     0
176
     0
177
     0
178
     0
  0
DIMSTYLE
  2
ISO-25
 70
     0
  3

  4

  5

  6

  7

 40
1.0
 41
2.5
 42
0.625
 43
3.75
 44
1.25
 45
0.0
 46
0.0
 47
0.0
 48
0.0
140
2.5
141
2.5
142
0.0
143
0.03937007874016
144
1.0
145
0.0
146
1.0
147
0.625
 71
     0
 72
     0
 73
     0
 74
     0
 75
     0
 76
     0
 77
     1
 78
     8
170
     0
171
     3
172
     1
173
     0
174
     0
175
     0
176
     0
177
     0
178
     0
  0
DIMSTYLE
  2
字体小MM
 70
     0
  3

  4

  5

  6

  7

 40
1.0
 41
1.0
 42
1.0
 43
3.75
 44
1.0
 45
0.0
 46
0.0
 47
0.0
 48
0.0
140
20.0
141
2.5
142
0.0
143
0.03937007874016
144
1.0
145
0.0
146
1.0
147
1.0
 71
     0
 72
     0
 73
     0
 74
     0
 75
     0
 76
     0
 77
     1
 78
     8
170
     0
171
     0
172
     1
173
     0
174
     0
175
     0
176
     1
177
     1
178
     1
  0
DIMSTYLE
  2
MM
 70
     0
  3

  4

  5

  6

  7

 40
1.0
 41
15.0
 42
5.0
 43
3.75
 44
1.25
 45
0.0
 46
0.0
 47
0.0
 48
0.0
140
17.0
141
2.5
142
0.0
143
0.03937007874016
144
0.03937007874016
145
0.0
146
1.0
147
5.0
 71
     0
 72
     0
 73
     0
 74
     0
 75
     0
 76
     0
 77
     1
 78
     8
170
     0
171
     0
172
     1
173
     0
174
     0
175
     0
176
   256
177
   256
178
   256
  0
DIMSTYLE
  2
小号字MM
 70
     0
  3

  4
mm
  5

  6

  7

 40
1.0
 41
5.0
 42
2.0
 43
3.75
 44
1.25
 45
0.0
 46
0.0
 47
0.0
 48
0.0
140
8.0
141
2.5
142
0.0
143
25.3999999999999986
144
0.03937007874016
145
0.0
146
1.0
147
3.0
 71
     0
 72
     0
 73
     0
 74
     0
 75
     0
 76
     0
 77
     1
 78
     8
170
     1
171
     1
172
     1
173
     0
174
     0
175
     0
176
     1
177
     1
178
     1
  0
DIMSTYLE
  2
毫米和英寸
 70
     0
  3

  4
mm
  5

  6

  7

 40
1.0
 41
10.0
 42
5.0
 43
3.75
 44
1.25
 45
0.0
 46
0.0
 47
0.0
 48
0.0
140
17.0
141
2.5
142
0.0
143
25.3999999999999986
144
0.03937007874016
145
0.0
146
1.0
147
5.0
 71
     0
 72
     0
 73
     0
 74
     0
 75
     0
 76
     0
 77
     1
 78
     8
170
     1
171
     0
172
     1
173
     0
174
     0
175
     0
176
     1
177
     1
178
     1
  0
DIMSTYLE
  2
英寸加MM
 70
     0
  3

  4
mm
  5

  6

  7

 40
1.0
 41
10.0
 42
6.0
 43
3.75
 44
1.25
 45
0.0
 46
0.0
 47
0.0
 48
0.0
140
15.0
141
2.5
142
0.0
143
25.3999999999999986
144
0.03937007874016
145
0.0
146
1.0
147
10.0
 71
     0
 72
     0
 73
     0
 74
     0
 75
     0
 76
     0
 77
     1
 78
     8
170
     1
171
     2
172
     1
173
     0
174
     0
175
     0
176
     1
177
     1
178
     1
  0
DIMSTYLE
  2
英寸
 70
     0
  3

  4

  5

  6

  7

 40
1.0
 41
15.0
 42
5.0
 43
3.75
 44
1.25
 45
0.0
 46
0.0
 47
0.0
 48
0.0
140
25.0
141
2.5
142
0.0
143
0.03937007874016
144
0.03937
145
0.0
146
1.0
147
5.0
 71
     0
 72
     0
 73
     0
 74
     0
 75
     0
 76
     0
 77
     1
 78
     9
170
     0
171
     0
172
     1
173
     0
174
     0
175
     0
176
   256
177
   256
178
   256
  0
ENDTAB
  0
ENDSEC
  0
SECTION
  2
BLOCKS
  0
BLOCK
  8
0
  2
$MODEL_SPACE
 70
     0
 10
0.0
 20
0.0
 30
0.0
  3
$MODEL_SPACE
  1

  0
ENDBLK
  5
3E9
  8
0
  0
BLOCK
 67
     1
  8
0
  2
$PAPER_SPACE
 70
     0
 10
0.0
 20
0.0
 30
0.0
  3
$PAPER_SPACE
  1

  0
ENDBLK
  5
3E5
 67
     1
  8
0
  0
BLOCK
  8
0
  2
*D2
 70
     1
 10
0.0
 20
0.0
 30
0.0
  3
*D2
  1

  0
LINE
  5
252
  8
0
 62
     1
 10
30319.2694678743100667
 20
21340.3128079424714088
 30
0.0
 11
30319.2694678743100667
 21
21853.0502489557111403
 31
0.0
  0
LINE
  5
253
  8
0
 62
     1
 10
29620.3838115111284424
 20
21686.5941571539297001
 30
0.0
 11
29620.3838115111284424
 21
21853.0502489557111403
 31
0.0
  0
LINE
  5
254
  8
0
 62
     1
 10
30304.2694678743100667
 20
21851.8002489557111403
 30
0.0
 11
29635.3838115111393563
 21
21851.8002489557111403
 31
0.0
  0
SOLID
  5
255
  8
0
 62
     1
 10
30304.2694678743100667
 20
21854.3002489557111403
 30
0.0
 11
30304.2694678743100667
 21
21849.3002489557111403
 31
0.0
 12
30319.2694678743100667
 22
21851.8002489557111403
 32
0.0
 13
30319.2694678743100667
 23
21851.8002489557111403
 33
0.0
  0
SOLID
  5
256
  8
0
 62
     1
 10
29635.3838115111393563
 20
21854.3002489557111403
 30
0.0
 11
29635.3838115111393563
 21
21849.3002489557111403
 31
0.0
 12
29620.3838115111284424
 22
21851.8002489557111403
 32
0.0
 13
29620.3838115111284424
 23
21851.8002489557111403
 33
0.0
  0
INSERT
  5
257
  8
0
  2
*U3
 10
0.0
 20
0.0
 30
0.0
  0
POINT
  5
258
  8
DEFPOINTS
 62
     0
 10
30319.2694678743100667
 20
21335.3128079424714088
 30
0.0
  0
POINT
  5
259
  8
DEFPOINTS
 62
     0
 10
29620.3838115111284424
 20
21681.5941571539187862
 30
0.0
  0
POINT
  5
25A
  8
DEFPOINTS
 62
     0
 10
29620.3838115111284424
 20
21851.8002489557111403
 30
0.0
  0
ENDBLK
  5
25B
  8
0
  0
BLOCK
  8
0
  2
*U3
 70
     1
 10
0.0
 20
0.0
 30
0.0
  3
*U3
  1

  0
TEXT
  5
35E
  8
0
 62
     1
 10
29926.6251844858088589
 20
21856.8002489557111403
 30
0.0
 40
25.0
  1
27
  0
TEXT
  5
35F
  8
0
 62
     1
 10
29961.6695228214193776
 20
21881.9025681917191832
 30
0.0
 40
25.0
  1
1
  0
LINE
  5
360
  8
0
 62
     1
 10
29964.5083747593998851
 20
21861.4237670844995591
 30
0.0
 11
29993.1871965769314556
 21
21902.3813692989497213
 31
0.0
  0
TEXT
  5
361
  8
0
 62
     1
 10
29981.9912599746712658
 20
21856.8002489557111403
 30
0.0
 40
25.0
  1
2
  0
TEXT
  5
362
  8
0
 62
     1
 10
30001.2443295517514343
 20
21856.8002489557111403
 30
0.0
 40
25.0
  1
"
  0
ENDBLK
  5
364
  8
0
  0
BLOCK
  8
0
  2
*D4
 70
     1
 10
0.0
 20
0.0
 30
0.0
  3
*D4
  1

  0
LINE
  5
272
  8
0
 62
     1
 10
3805.1420347624011811
 20
1562.737934766169019
 30
0.0
 11
3805.1420347624011811
 21
2075.4753757794119338
 31
0.0
  0
LINE
  5
273
  8
0
 62
     1
 10
3106.2563783992281969
 20
1909.019283977627083
 30
0.0
 11
3106.2563783992281969
 21
2075.4753757794119338
 31
0.0
  0
LINE
  5
274
  8
0
 62
     1
 10
3790.1420347624011811
 20
2074.2253757794128433
 30
0.0
 11
3121.2563783992268327
 21
2074.2253757794128433
 31
0.0
  0
SOLID
  5
275
  8
0
 62
     1
 10
3790.1420347624011811
 20
2076.7253757794119338
 30
0.0
 11
3790.1420347624011811
 21
2071.7253757794128433
 31
0.0
 12
3805.1420347624011811
 22
2074.2253757794128433
 32
0.0
 13
3805.1420347624011811
 23
2074.2253757794128433
 33
0.0
  0
SOLID
  5
276
  8
0
 62
     1
 10
3121.2563783992268327
 20
2076.7253757794119338
 30
0.0
 11
3121.2563783992268327
 21
2071.7253757794128433
 31
0.0
 12
3106.2563783992281969
 22
2074.2253757794128433
 32
0.0
 13
3106.2563783992281969
 23
2074.2253757794128433
 33
0.0
  0
INSERT
  5
277
  8
0
  2
*U5
 10
0.0
 20
0.0
 30
0.0
  0
POINT
  5
278
  8
DEFPOINTS
 62
     0
 10
3805.1420347624011811
 20
1557.737934766169019
 30
0.0
  0
POINT
  5
279
  8
DEFPOINTS
 62
     0
 10
3106.2563783992281969
 20
1904.019283977627083
 30
0.0
  0
POINT
  5
27A
  8
DEFPOINTS
 62
     0
 10
3106.2563783992281969
 20
2074.2253757794128433
 30
0.0
  0
ENDBLK
  5
268
  8
0
  0
BLOCK
  8
0
  2
*U5
 70
     1
 10
0.0
 20
0.0
 30
0.0
  3
*U5
  1

  0
TEXT
  5
366
  8
0
 62
     1
 10
3412.4977513739008828
 20
2079.2253757794119338
 30
0.0
 40
25.0
  1
27
  0
TEXT
  5
367
  8
0
 62
     1
 10
3447.5420897095091277
 20
2104.3276950154267979
 30
0.0
 40
25.0
  1
1
  0
LINE
  5
368
  8
0
 62
     1
 10
3450.380941647480995
 20
2083.8488939082039906
 30
0.0
 11
3479.0597634650330292
 21
2124.8064961226527885
 31
0.0
  0
TEXT
  5
369
  8
0
 62
     1
 10
3467.8638268627601065
 20
2079.2253757794119338
 30
0.0
 40
25.0
  1
2
  0
TEXT
  5
36A
  8
0
 62
     1
 10
3487.1168964398398202
 20
2079.2253757794119338
 30
0.0
 40
25.0
  1
"
  0
ENDBLK
  5
36C
  8
0
  0
BLOCK
  8
0
  2
*D6
 70
     1
 10
0.0
 20
0.0
 30
0.0
  3
*D6
  1

  0
LINE
  5
2BC
  8
0
 10
2224.8789134213379839
 20
1691.9396462103240992
 30
0.0
 11
2224.8789134213379839
 21
1774.3428823993729111
 31
0.0
  0
LINE
  5
2BD
  8
0
 10
2936.8789134213388934
 20
1691.9396462103240992
 30
0.0
 11
2936.8789134213388934
 21
1774.3428823993729111
 31
0.0
  0
LINE
  5
2BE
  8
0
 10
2239.8789134213388934
 20
1773.0928823993729111
 30
0.0
 11
2921.8789134213379839
 21
1773.0928823993729111
 31
0.0
  0
SOLID
  5
2BF
  8
0
 10
2239.8789134213388934
 20
1775.5928823993720016
 30
0.0
 11
2239.8789134213388934
 21
1770.5928823993729111
 31
0.0
 12
2224.8789134213379839
 22
1773.0928823993729111
 32
0.0
 13
2224.8789134213379839
 23
1773.0928823993729111
 33
0.0
  0
SOLID
  5
2C0
  8
0
 10
2921.8789134213379839
 20
1775.5928823993720016
 30
0.0
 11
2921.8789134213379839
 21
1770.5928823993729111
 31
0.0
 12
2936.8789134213388934
 22
1773.0928823993729111
 32
0.0
 13
2936.8789134213388934
 23
1773.0928823993729111
 33
0.0
  0
INSERT
  5
2C1
  8
0
  2
*U7
 10
0.0
 20
0.0
 30
0.0
  0
POINT
  5
2C2
  8
DEFPOINTS
 62
     0
 10
2224.8789134213379839
 20
1686.9396462103240992
 30
0.0
  0
POINT
  5
2C3
  8
DEFPOINTS
 62
     0
 10
2936.8789134213388934
 20
1686.9396462103240992
 30
0.0
  0
POINT
  5
2C4
  8
DEFPOINTS
 62
     0
 10
2936.8789134213388934
 20
1773.0928823993729111
 30
0.0
  0
ENDBLK
  5
27E
  8
0
  0
BLOCK
  8
0
  2
*U7
 70
     1
 10
0.0
 20
0.0
 30
0.0
  3
*U7
  1

  0
TEXT
  5
36E
  8
0
 10
2555.5634291102878706
 20
1778.5192125494399988
 30
0.0
 40
25.0
  1
28"
  0
ENDBLK
  5
370
  8
0
  0
BLOCK
  8
0
  2
*D8
 70
     1
 10
0.0
 20
0.0
 30
0.0
  3
*D8
  1

  0
LINE
  5
2C5
  8
0
 10
2229.8789134213388934
 20
1696.9396462103240992
 30
0.0
 11
2139.2118792822720934
 21
1696.9396462103240992
 31
0.0
  0
LINE
  5
2C6
  8
0
 10
2229.8789134213388934
 20
1289.9396462103240992
 30
0.0
 11
2139.2118792822720934
 21
1289.9396462103240992
 31
0.0
  0
LINE
  5
2C7
  8
0
 10
2140.4618792822720934
 20
1681.9396462103250087
 30
0.0
 11
2140.4618792822720934
 21
1304.9396462103240992
 31
0.0
  0
SOLID
  5
2C8
  8
0
 10
2137.9618792822720934
 20
1681.9396462103250087
 30
0.0
 11
2142.9618792822711839
 21
1681.9396462103250087
 31
0.0
 12
2140.4618792822720934
 22
1696.9396462103240992
 32
0.0
 13
2140.4618792822720934
 23
1696.9396462103240992
 33
0.0
  0
SOLID
  5
2C9
  8
0
 10
2137.9618792822720934
 20
1304.9396462103240992
 30
0.0
 11
2142.9618792822711839
 21
1304.9396462103240992
 31
0.0
 12
2140.4618792822720934
 22
1289.9396462103240992
 32
0.0
 13
2140.4618792822720934
 23
1289.9396462103240992
 33
0.0
  0
INSERT
  5
2CA
  8
0
  2
*U9
 10
0.0
 20
0.0
 30
0.0
  0
POINT
  5
2CB
  8
DEFPOINTS
 62
     0
 10
2234.8789134213398029
 20
1696.9396462103240992
 30
0.0
  0
POINT
  5
2CC
  8
DEFPOINTS
 62
     0
 10
2234.8789134213398029
 20
1289.9396462103240992
 30
0.0
  0
POINT
  5
2CD
  8
DEFPOINTS
 62
     0
 10
2140.4618792822720934
 20
1289.9396462103240992
 30
0.0
  0
ENDBLK
  5
296
  8
0
  0
BLOCK
  8
0
  2
*U9
 70
     1
 10
0.0
 20
0.0
 30
0.0
  3
*U9
  1

  0
TEXT
  5
372
  8
0
 10
2135.0355491322029593
 20
1466.7343256100509734
 30
0.0
 40
25.0
  1
16"
 50
90.0
  0
ENDBLK
  5
374
  8
0
  0
BLOCK
  8
0
  2
*D10
 70
     1
 10
0.0
 20
0.0
 30
0.0
  3
*D10
  1

  0
LINE
  5
2F4
  8
0
 10
2328.2754104946429834
 20
1329.1871996844399746
 30
0.0
 11
2239.6504230731211464
 21
1301.4338669580579335
 31
0.0
  0
INSERT
  5
2F5
  8
0
  2
*U11
 10
0.0
 20
0.0
 30
0.0
  0
SOLID
  5
2F6
  8
0
 10
2238.9033126992540019
 20
1303.81962178394906
 30
0.0
 11
2240.3975334469892005
 21
1299.0481121321679439
 31
0.0
 12
2225.3358941177789347
 22
1296.9512047148530201
 32
0.0
 13
2225.3358941177789347
 23
1296.9512047148530201
 33
0.0
  0
POINT
  5
2F7
  8
DEFPOINTS
 62
     0
 10
2225.3358941177789347
 20
1296.9512047148530201
 30
0.0
  0
POINT
  5
2F8
  8
DEFPOINTS
 62
     0
 10
2234.8789134213398029
 20
1299.9396462103220529
 30
0.0
  0
ENDBLK
  5
2AF
  8
0
  0
BLOCK
  8
0
  2
*U11
 70
     1
 10
0.0
 20
0.0
 30
0.0
  3
*U11
  1

  0
TEXT
  5
376
  8
0
 10
2262.3360466211870516
 20
1314.224154432044088
 30
0.0
 40
25.0
  1
R10
 50
17.3881932954771408
  0
ENDBLK
  5
378
  8
0
  0
BLOCK
  8
0
  2
*U12
 70
     1
 10
0.0
 20
0.0
 30
0.0
  3
*U12
  1

  0
TEXT
  5
475
  8
0
 10
2277.6961421499790958
 20
1989.1001966037611055
 30
0.0
 40
40.0
  1
208002 TEMPLATE
  0
ENDBLK
  5
477
  8
0
  0
ENDSEC
  0
SECTION
  2
ENTITIES
  0
POLYLINE
  5
24F
  8
0
 66
     1
 10
0.0
 20
0.0
 30
0.0
 70
     1
  0
VERTEX
  5
42B
  8
0
 10
2234.8789134213379839
 20
1696.9396462103240992
 30
0.0
  0
VERTEX
  5
42C
  8
0
 10
2926.8789134213388934
 20
1696.9396462103240992
 30
0.0
 42
-0.4142135623730951
  0
VERTEX
  5
42D
  8
0
 10
2936.8789134213388934
 20
1686.9396462103240992
 30
0.0
  0
VERTEX
  5
42E
  8
0
 10
2936.8789134213388934
 20
1299.9396462103240992
 30
0.0
 42
-0.4142135623730951
  0
VERTEX
  5
42F
  8
0
 10
2926.8789134213388934
 20
1289.9396462103240992
 30
0.0
  0
VERTEX
  5
430
  8
0
 10
2234.8789134213379839
 20
1289.9396462103240992
 30
0.0
 42
-0.4142135623730951
  0
VERTEX
  5
431
  8
0
 10
2224.8789134213379839
 20
1299.9396462103240992
 30
0.0
  0
VERTEX
  5
432
  8
0
 10
2224.8789134213379839
 20
1686.9396462103240992
 30
0.0
 42
-0.4142135623730951
  0
SEQEND
  5
433
  8
0
  0
DIMENSION
  5
27B
  8
0
  2
*D6
 10
2936.8789134213388934
 20
1773.0928823993729111
 30
0.0
 11
2580.8789134213388934
 21
1790.8572070924149102
 31
0.0
 13
2224.8789134213379839
 23
1686.9396462103240992
 33
0.0
 14
2936.8789134213388934
 24
1686.9396462103240992
 34
0.0
  0
DIMENSION
  5
293
  8
0
  2
*D8
 10
2140.4618792822720934
 20
1289.9396462103240992
 30
0.0
 11
2122.6975545892300943
 21
1493.4396462103240992
 31
0.0
 13
2234.8789134213379839
 23
1696.9396462103240992
 33
0.0
 14
2234.8789134213379839
 24
1289.9396462103240992
 34
0.0
 50
90.0
  0
DIMENSION
  5
2AC
  8
0
  2
*D10
 10
2234.8789134213398029
 20
1299.9396462103220529
 30
0.0
 11
2295.040836787731223
 21
1318.7796362089120521
 31
0.0
 70
   132
  1
R10
 15
2225.3358941177789347
 25
1296.9512047148530201
 35
0.0
 40
0.0
1001
ACAD
1000
DSTYLE
1002
{
1070
   288
1070
     1
1002
}
1001
ACAD_DSTYLE_DIMRADIAL_EXTENSION
1070
   387
1070
     1
1070
   388
1040
3.1415926535897918
1070
   390
1040
4.7123889803846879
  0
INSERT
  5
41A
  8
0
  2
*U12
 10
0.0
 20
0.0
 30
0.0
  0
ENDSEC
  0
EOF
